Skocz do zawartości

TOMUS0306

Uczestnik
  • Zawartość

    9
  • Dołączył

  • Ostatnio

Posty napisane przez TOMUS0306

  1. Dnia 26.01.2021 o 01:01, JaZz napisał:

     Przytrzymałem guzik od sceny 6 żeby zapisało się źródło tidal na tej scenie i chyba wtedy coś się zmieniło 🤔

    Cześć , wiec sprawdź co ustawiłeś /zapisałeś przytrzymując scenę 6 (każdą możesz definiować na swój sposób) być może masz odznaczone HDMI  OUT , wiec obraz nie pójdzie na TV

  2. Są jeszcze CANTON GLE 416.2 lub GLE 416.2 Pro już z mocowaniami i sam się zastanawiam miedzy Dali Alteco C-1 a tymi CANTON-ami , ale jak wielu tutaj radzi żeby głośniki Atmos wisiały bezpośrednio nad głową na wysokości kolan wiec Dali zeszły na drugi plan . Ale czy te Canton-y to dobry wybór czy ktoś miał możliwości ich odsłuchu?

  3. U mnie jest tak samo jak wybierzesz w ustawieniach DD to będzie w DD jak DTS to będzie DTS i analogicznie do PCM , mimo ze gra jak piszesz jest w DTS HD nie wiem czemu tak jest w przypadku gier.

  4. 12 godzin temu, Aandrzej napisał:

    Witam,

    Drugie pytanie dotyczy dźwięku z ps4 pro. Otóż z konsoli również nie udało mi się jak dotąd uzyskać dźwięku HD. W opcjach konsoli mogę wybrać tylko PCM/DTS/DD. Przy odpalaniu tytułów ze ścieżką HD amplituner dekoduje tylko zwykły DTS. Spotkał się ktoś z Was z takim problemem?

    Witam, konsole masz podłączoną bezpośrednio pod Amplituner? mam ten sam model 685 i w konsoli mam ustawione Bitstream (Dolby) i po odpaleniu filmu Amplituner sam wykrywa jaka ścieżkę dźwięku podałeś i ja dekoduje .U mnie np. Jason Bourne leci w DTS:X

  5. 27 minut temu, Jasiek88 napisał:

    Dlatego że format Dolby Atmos to nic innego jak ścieżka TRUEHD+ATMOS lub DD-PLUS+ATMOS ten pierwszy jest na płytach BD\UHD a ten drugi np nadaje Netflix.

     

    
    Audio #1
    ID                                       : 2
    Format                                   : MLP FBA 16-ch
    Format/Info                              : Meridian Lossless Packing FBA with 16-channel presentation
    Commercial name                          : Dolby TrueHD with Dolby Atmos
    Codec ID                                 : A_TRUEHD
    Duration                                 : 2 h 1 min
    Bit rate mode                            : Variable
    Bit rate                                 : 3 819 kb/s
    Maximum bit rate                         : 7 158 kb/s
    Channel(s)                               : 8 channels
    Channel layout                           : L R C LFE Ls Rs Lb Rb
    Sampling rate                            : 48.0 kHz
    Frame rate                               : 1 200.000 FPS (40 SPF)
    Compression mode                         : Lossless
    Stream size                              : 3.25 GiB (12%)
    Language                                 : English
    Default                                  : Yes
    Forced                                   : No
    Number of dynamic objects                : 15
    Bed channel count                        : 1 channel
    Bed channel configuration                : LFE
    
    Audio #1
    ID                                       : 2
    Format                                   : E-AC-3 JOC
    Format/Info                              : Enhanced AC-3 with Joint Object Coding
    Commercial name                          : Dolby Digital Plus with Dolby Atmos
    Codec ID                                 : A_EAC3
    Duration                                 : 3 h 28 min
    Bit rate mode                            : Constant
    Bit rate                                 : 768 kb/s
    Channel(s)                               : 6 channels
    Channel layout                           : L R C LFE Ls Rs
    Sampling rate                            : 48.0 kHz
    Frame rate                               : 31.250 FPS (1536 SPF)
    Compression mode                         : Lossy
    Stream size                              : 1.12 GiB (4%)
    Title                                    : Original
    Language                                 : English
    Service kind                             : Complete Main
    Default                                  : No
    Forced                                   : No
    Complexity index                         : 16
    Number of dynamic objects                : 15
    Bed channel count                        : 1 channel
    Bed channel configuration                : LFE

     

    Super dziękuje Jasiek!!! Dziękuje za wytłumaczenie o to mi chodziło, teraz rozumiem ze Yamaha pokazuje odrazy z jakiego rdzenia pobiera ATMOSA, i może jest to nawet lepsze bo przynajmniej wie się czy jest to DD+atmos czy ten lepszy TRHD ATMOS.  jeszcze raz dzięki pozdrawiam

  6. 6 minut temu, Jasiek88 napisał:

    Robisz problem z niczego, gdybyś miał źle ustawione nie zobaczył byś żadnego napisu atmos, nigdzie.

    W temacie xboxie one i odczytu płyt BD jedyne co należy zrobić to w opcjach odtwarzania blu-ray włączyć bezpośrednie przekazywanie dźwięku do amplitunera.

    Ok dzięki za odpowiedz, poprostu mnie to ciekawiło dlaczego tak jest i czy każdy posiadacz tego ampli tak ma bo gdzie nie pytałem to mówili co innego.

  7. 1 godzinę temu, Jasiek88 napisał:

    Tak ma być.

    Jak te materiały są odtwarzane ? jaki program, urządzenie, plik format, płyta?

    Tak jak napisałem z xboxa S, płyta Warcraft: Początek z Atmosem lub z PC dema ściągnięte z znanej strony, dzwoniłem do serwisu i oni twierdza ze mam coś zle podłączone ale co możne być złe , kabel HDMI 2.0 , głośniki przypisane poprawnie, ten sam film na DENONIE pokazuje tylko ATMOS nie ATMOS/TRHD czy ATMOS/DD+, tak samo płyta demonstracyjna puszczana z Xboxa na Denonie pokazuje napis ATMOS .

    Czemu na zdjęciu producent Yamaha pokazuje sam napis DOLBY ATMOS?? a w rzeczywistości jest inaczej? meczy mnie to czy to jest aby na pewno poprawnie , na innym forum wyczytałem o tym samym problemie i tam ktoś wkleił zdjęcie ze mu pokazuje sam napis DOLBY ATMOS

    Klinknij TUTAJ

     

     

  8. Witam chciałbym się przyłączyć do tematu , mam ten sam Amplituner Yamaha RX-V685 głośniki ustawione w systemie 5.1.2 i przy odtwarzaniu filmu czy materiałów demo  ATMOS na wyświetlaczu zawsze pokazuje mi ATMOS/DD+ lub ATMOS/DTHD , czemu nie wyświetla mi się czysty DOLBY ATMOS ?

    Byłem ostatnio w salonie DENON-a i tam pokazuje ATMOS , pytanie czemu Yamaha pokazuje inaczej czy jest to poprawna informacja? Xbox podłączony bezpośrednio do wzmacniacza. Czy ktoś z posiadających ten model 685 ma podobnie ? Ciekawi mnie jak bedzie u Ciebie @Kylfon po podlaczeniu konsoli.

    Proszę o pomoc w tej sprawie z góry dziękuje i pozdrawiam

     

    685.png.267449e969b38fe6500d1bc389b21110.png

×
×
  • Utwórz nowe...