Skocz do zawartości

Jasiek88

Uczestnik
  • Zawartość

    160
  • Dołączył

O Jasiek88

  • Ranga
    Sympatyk

Informacje osobiste

  • Lokalizacja
    Wroclaw

Ostatnio na profilu byli

Blok z ostatnio odwiedzającymi jest wyłączony i nie jest wyświetlany innym użytkownikom.

  1. Gdybyś się troszkę wysilił to byś zauważyłem że ten mikrofon jest na kablu usb.
  2. Ciekawe czy soundclub zrezygnował że sprzedaży SVS właśnie z powodu częstych usterek/wad.
  3. https://www.avsforum.com/forum/113-subwoofers-bass-transducers/2958528-guide-subwoofer-calibration-bass-preferences.html#IID
  4. Ten podział na large lub small już dawno powinni wywalić jest to totalnie niepotrzebne i mylące dla laika. @Stolarz To nic innego jak odcięcie basu z kolumn i przekazanie go do subwoofera, sub potrafi lepiej i z większym ciśnieniem zagrać niższy bas dlatego odcina się kolumny np na 80hz jeśli mamy jeszcze gorsze kolumny to jeszcze wyżej. Uzyskujemy dzięki temu lepszą separację, mnie źródeł basu którzy jet najgorszą rzeczą w pomieszczeniu do ogarnięcia, odciążamy też amplituner bo to bas zabiera najwięcej mocy.
  5. Miałeś svs w domu i porównywałeś?
  6. Co jest lepsze do muzy?
  7. Właśnie nie słyszałem najlepiej zadzwonić do sklepu i zapytać jaką oni mają opinię, ja ogólnie nie jestem za kupowaniem najniższych modeli 1000 to kabel zasilania ósemka, gorsze wykonanie czytałem że trafiają się buczące egzemplarze.
  8. r112sw to klucha sprzedaj go w cholerę. Chcesz szybki punktowy precyzyjny to SVS SB ale znowu nie będzie schodził tak nisko jak SVS PB, model 1000 możesz od razu z listy usunąć ale jeśli już musisz po taniości to spróbuj SVS SB-12 NSD.
  9. Heco też są zbasowane, ale tak na prawdę o wszystkich decyduje akustyka czym będzie lepszy tym mnie dokuczliwe będą skrajności danego pasma.
  10. Nagraj transmisję na dekoderze i odtwórz ją na innym urządzeniu np na TV lub na odtwarzaczu muzyki wyciągając ścieżkę audio.
  11. Wychodzi na to że te amplitunery yamaha pokazują format wejściowy na początku i wyjściowy tryb w tym wypadku PCM i włączony upmix do Atmos nie ma to nic wspólnego z poprawnym ustawieniem. Poprawnie będzie wtedy gdy w Input OSD amplitunera zobaczymy format atmos. Ustawienia Tv nie maja znaczenie gdy konsola będzie bezpośrednio podłączona do amplitunera. @TOMUS0306 Twoja konsola jest podłączona jak?
  12. Możesz wyjaśnić co próbujesz zrobić bo raz piszesz o TV raz o Xboxie i tak w kółko coś innego.
  13. @Kylfon W którym momencie masz taki input w amplitunerze? w momencie odtwarzania czegoś z netflix z atmosem czy zawsze? nawet jeśli nic nie leci? W Xboxie z ustawionym wyjściem audio na Atmos wymusza to połączenie na stałe, połączenie to nazywa się Dolby MAT Dolby Atmos in Dolby MAT The Dolby Metadata-enhanced Audio Transmission (Dolby MAT) encoder resides in a Blu-ray player to pack the variable bit-rate Dolby TrueHD bitstreams for transmission over the fixed bit-rate HDMI connections. A MAT decoder is subsequently employed in an AVR to unpack the Dolby TrueHD bitstreams. With the introduction of Dolby Atmos, we have expanded this technology to support encoding of Dolby Atmos content as lossless pulse-code modulation (PCM) audio. A key benefit of Dolby MAT 2.0 is that Dolby Atmos object-based audio can be live encoded and transmitted from a source device with limited latency and processing complexity. Among the possible sources are broadcast set-top boxes, PCs, and game consoles. The Dolby MAT 2.0 decoder in an AVR outputs the object-based audio and its metadata for further processing. The Dolby MAT 2.0 container is scalable and leverages the full potential of the HDMI audio pipeline.
  14. Dlatego że format Dolby Atmos to nic innego jak ścieżka TRUEHD+ATMOS lub DD-PLUS+ATMOS ten pierwszy jest na płytach BD\UHD a ten drugi np nadaje Netflix. Audio #1 ID : 2 Format : MLP FBA 16-ch Format/Info : Meridian Lossless Packing FBA with 16-channel presentation Commercial name : Dolby TrueHD with Dolby Atmos Codec ID : A_TRUEHD Duration : 2 h 1 min Bit rate mode : Variable Bit rate : 3 819 kb/s Maximum bit rate : 7 158 kb/s Channel(s) : 8 channels Channel layout : L R C LFE Ls Rs Lb Rb Sampling rate : 48.0 kHz Frame rate : 1 200.000 FPS (40 SPF) Compression mode : Lossless Stream size : 3.25 GiB (12%) Language : English Default : Yes Forced : No Number of dynamic objects : 15 Bed channel count : 1 channel Bed channel configuration : LFE Audio #1 ID : 2 Format : E-AC-3 JOC Format/Info : Enhanced AC-3 with Joint Object Coding Commercial name : Dolby Digital Plus with Dolby Atmos Codec ID : A_EAC3 Duration : 3 h 28 min Bit rate mode : Constant Bit rate : 768 kb/s Channel(s) : 6 channels Channel layout : L R C LFE Ls Rs Sampling rate : 48.0 kHz Frame rate : 31.250 FPS (1536 SPF) Compression mode : Lossy Stream size : 1.12 GiB (4%) Title : Original Language : English Service kind : Complete Main Default : No Forced : No Complexity index : 16 Number of dynamic objects : 15 Bed channel count : 1 channel Bed channel configuration : LFE
  15. Robisz problem z niczego, gdybyś miał źle ustawione nie zobaczył byś żadnego napisu atmos, nigdzie. W temacie xboxie one i odczytu płyt BD jedyne co należy zrobić to w opcjach odtwarzania blu-ray włączyć bezpośrednie przekazywanie dźwięku do amplitunera.
×
×
  • Utwórz nowe...